+ ShareSpark.net »  :::: Dubbed Zone (Dubbed English in Hindi) » English Movies Dubbed in Hindi » HEVC / H.265 Releases
|- Black Panther (2018) 720p Bluray x265 Dual Audio [Hindi DD2.0 ORG - English DD2.0] - Esub ~ Ranvijay


100% Bill Offer

Black Panther (2018) 720p Bluray x265 Dual Audio [Hindi DD2.0 ORG - English DD2.0] - Esub ~ Ranvijay

0 Members and 1 Guest are viewing this topic.

May 18, 2018, 01:37:28 AM
  • Global Moderator
  • Legend Member
  • *****
  • Topic Author
  • Thank You: 11309
  • Reputation: 2272
  • Activity:
    100%
  • Country: in
  • Posts: 5486
  • Topics: 4526
  • Join Date: Jan 2014
  • ıllıllı ѕмoĸιng ιѕ good ғor нealтн ıllıllı :)




Black Panther (2018) 720p Bluray x265 Dual Audio [Hindi DD2.0 ORG - English DD2.0] - Esub ~ Ranvijay

Thanks To ® I'm Loser ® For Hindi Audio

Buy RDP Online


Quote
Format                                   : Matroska
Format version                           : Version 4 / Version 2
File size                                : 1.35 GiB
Duration                                 : 2 h 14 min
Overall bit rate                         : 1 436 kb/s
Movie name                               : Black Panther (2018) 720p Bluray x265 Dual Audio [Hindi DD2.0 ORG - English DD2.0] - Esub ~ Ranvijay

Video
ID                                       : 1
Format                                   : HEVC
Format/Info                              : High Efficiency Video Coding
Format profile                           : [email protected]@Main
Codec ID                                 : V_MPEGH/ISO/HEVC
Duration                                 : 2 h 14 min
Bit rate                                 : 977 kb/s
Width                                    : 1 280 pixels
Height                                   : 536 pixels
Display aspect ratio                     : 2.40:1
Frame rate mode                          : Constant
Frame rate                               : 23.976 (24000/1001) FPS
Color space                              : YUV
Chroma subsampling                       : 4:2:0
Bit depth                                : 8 bits
Bits/(Pixel*Frame)                       : 0.059
Stream size                              : 940 MiB (68%)
Title                                    : ~Ranvijay~
Default                                  : Yes
Forced                                   : No

Audio #1
ID                                       : 2
Format                                   : AC-3
Format/Info                              : Audio Coding 3
Codec ID                                 : A_AC3
Duration                                 : 2 h 14 min
Bit rate mode                            : Constant
Bit rate                                 : 384 kb/s
Channel(s)                               : 2 channels
Channel positions                        : Front: L R
Sampling rate                            : 48.0 kHz
Frame rate                               : 31.250 FPS (1536 SPF)
Bit depth                                : 16 bits
Compression mode                         : Lossy
Stream size                              : 370 MiB (27%)
Title                                    : ~Ranvijay~
Language                                 : Hindi
Service kind                             : Complete Main
Default                                  : Yes
Forced                                   : No

Audio #2
ID                                       : 3
Format                                   : AAC
Format/Info                              : Advanced Audio Codec
Format profile                           : HE-AAC / LC
Format settings                          : Explicit
Codec ID                                 : A_AAC-2
Duration                                 : 2 h 14 min
Bit rate                                 : 72.0 kb/s
Channel(s)                               : 2 channels
Channel positions                        : Front: L R
Sampling rate                            : 48.0 kHz / 24.0 kHz
Frame rate                               : 23.438 FPS (1024 SPF)
Compression mode                         : Lossy
Delay relative to video                  : 23 ms
Stream size                              : 70.0 MiB (5%)
Title                                    : ~Ranvijay~
Language                                 : English
Default                                  : No
Forced                                   : No

Text #1
ID                                       : 4
Format                                   : UTF-8
Codec ID                                 : S_TEXT/UTF8
Codec ID/Info                            : UTF-8 Plain Text
Duration                                 : 2 h 14 min
Bit rate                                 : 42 b/s
Count of elements                        : 1575
Stream size                              : 41.5 KiB (0%)
Title                                    : ~Ranvijay~
Language                                 : English
Default                                  : Yes
Forced                                   : No

Text #2
ID                                       : 5
Format                                   : UTF-8
Codec ID                                 : S_TEXT/UTF8
Codec ID/Info                            : UTF-8 Plain Text
Duration                                 : 2 h 14 min
Bit rate                                 : 49 b/s
Count of elements                        : 1835
Stream size                              : 48.2 KiB (0%)
Title                                    : ~Ranvijay~
Language                                 : English
Default                                  : No
Forced                                   : No















:download:

Quote



File Leeched & Uploaded From




Don't walk as you are king, walk as you don't care who the king is....!!
Never argue with an idiot. They drag you down to their level and then beat you with experience?

Share this topic on FacebookShare this topic on GoogleShare this topic on MySpaceShare this topic on TwitterShare this topic on Yahoo

« Last Edit: May 18, 2018, 05:53:50 PM by Rάήνίјάч1234 »



Don't walk as you are king, walk as you don't care who the king is....!!

Thanks given by:


May 18, 2018, 03:24:42 AM
Reply #1
  • Elite Forces
  • ****
  • Thank You: 244
  • Reputation: 105
  • Activity:
    8.6%
  • Country: sa
  • Posts: 1174
  • Topics: 130
  • Join Date: Jan 2017
  • ShareSpark Member

November 23, 2018, 11:18:14 AM
Reply #2
  • Royal Member
  • ****
  • Thank You: 1
  • Reputation: 5
  • Activity:
    1.6%
  • Country: bh
  • Posts: 913
  • Topics: 0
  • Join Date: May 2012
  • ShareSpark Member

Tags:
 

Related Topics





Back to top
Christopher Robin BluRayRip AC3 5.1 | Télécharger La Saison Complète | Unmanned Aerial Vehicle and Stealth Spy Drone