+ ShareSpark.net »  :::: Dubbed Zone (Dubbed English in Hindi) » English Movies Dubbed in Hindi » Small Size Dubbed Movies
|- Speed 2 Cruise Control Dual Logy x264 720p BluRay Dual Audio English Hindi GOPISAHI


100% Bill Offer

Speed 2 Cruise Control Dual Logy x264 720p BluRay Dual Audio English Hindi GOPISAHI

0 Members and 1 Guest are viewing this topic.

September 22, 2018, 04:19:22 PM
  • ***************
  • Team SSX
  • Legend Member
  • ***
  • Topic Author
  • Thank You: 1833
  • Reputation: 553
  • Activity:
    100%
  • Country: pk
  • Posts: 1934
  • Topics: 1218
  • Join Date: Mar 2015
  • =$ Success Never Ends $=
Speed 2 Cruise Control Dual Logy x264 720p BluRay Dual Audio English Hindi GOPISAHI









Format : Matroska
Format version : Version 4
File size : 800 MiB
Duration : 2 h 5 min
Overall bit rate : 894 kb/s
Movie name : Speed 2 Cruise Control 1997 GOPISAHI

Video
Format : AVC
Format/Info : Advanced Video Codec
Codec ID : V_MPEG4/ISO/AVC
Duration : 2 h 5 min
Bit rate : 699 kb/s
Width : 1 280 pixels
Height : 536 pixels
Display aspect ratio : 2.40:1
Frame rate mode : Constant
Frame rate : 23.976 (24000/1001) FPS
Color space : YUV
Chroma subsampling : 4:2:0
Bit depth : 8 bits
Scan type : Progressive
Bits/(Pixel*Frame) : 0.042
Stream size : 625 MiB (78%)
Title : GOPISAHI
Writing library : x264 core 155 r2901 7d0ff22
Language : English

Audio #1
Format : AAC LC
Duration : 2 h 5 min
Bit rate : 96.0 kb/s
Channel(s) : 2 channels
Channel layout : L R
Sampling rate : 48.0 kHz
Frame rate : 46.875 FPS (1024 SPF)
Compression mode : Lossy
Delay relative to video : -21 ms
Stream size : 86.1 MiB (11%)
Title : GOPISAHI
Language : Hindi

Audio #2
Format : AAC LC
Duration : 2 h 5 min
Bit rate : 96.0 kb/s
Channel(s) : 2 channels
Channel layout : L R
Sampling rate : 48.0 kHz
Frame rate : 46.875 FPS (1024 SPF)
Compression mode : Lossy
Delay relative to video : -21 ms
Stream size : 86.0 MiB (11%)
Title : GOPISAHI
Language : English





 :ss:







 :ss:









 :download:






















Share this topic on FacebookShare this topic on GoogleShare this topic on MySpaceShare this topic on TwitterShare this topic on Yahoo




Tags:
 

Related Topics





Back to top
Internship | Venom TS-Screener | Watch movie