+ ShareSpark.net »  :::: Dubbed Zone (Dubbed English in Hindi) » English Movies Dubbed in Hindi
|- The Admiral Roaring Currents 2014 x264 720p Esub BluRay Dual Audio English Hindi GOPISAHI


10% SBI and 10% Discount

The Admiral Roaring Currents 2014 x264 720p Esub BluRay Dual Audio English Hindi GOPISAHI

0 Members and 1 Guest are viewing this topic.

October 29, 2018, 02:45:54 PM
  • ***************
  • Team SSX
  • Legend Member
  • ***
  • Topic Author
  • Thank You: 1833
  • Reputation: 553
  • Activity:
    100%
  • Country: pk
  • Posts: 1934
  • Topics: 1218
  • Join Date: Mar 2015
  • =$ Success Never Ends $=
The Admiral Roaring Currents 2014 x264 720p Esub BluRay Dual Audio English Hindi GOPISAHI










Format : Matroska

Format version : Version 4 / Version 2

File size : 915 MiB

Duration : 2 h 8 min

Overall bit rate : 993 kb/s

Movie name : The Admiral Roaring Currents 2014 GOPISAHI


Video

Format : AVC

Codec ID : V_MPEG4/ISO/AVC

Duration : 2 h 8 min

Bit rate : 799 kb/s

Width : 1 280 pixels

Height : 536 pixels

Display aspect ratio : 2.40:1

Frame rate mode : Constant

Frame rate : 23.976 (24000/1001) FPS

Color space : YUV

Chroma subsampling : 4:2:0

Bit depth : 8 bits

Scan type : Progressive

Bits/(Pixel*Frame) : 0.049

Stream size : 736 MiB (80%)

Title : GOPISAHI

Writing library : x264 core 148 r2708 86b7198


Audio #1

Format : AAC

Duration : 2 h 8 min

Bit rate : 96.0 kb/s

Channel(s) : 2 channels

Channel positions : Front: L R

Sampling rate : 48.0 kHz

Frame rate : 46.875 FPS (1024 SPF)

Compression mode : Lossy

Delay relative to video : -21 ms

Stream size : 88.0 MiB (10%)

Title : GOPISAHI

Language : Hindi


Audio #2

Format : AAC

Duration : 2 h 8 min

Bit rate : 96.0 kb/s

Channel(s) : 2 channels

Channel positions : Front: L R

Sampling rate : 48.0 kHz

Frame rate : 46.875 FPS (1024 SPF)

Compression mode : Lossy

Delay relative to video : 9 ms

Stream size : 88.3 MiB (10%)

Title : GOPISAHI

Language : English


Text

Language : English





 :ss:













 :download:



























Share this topic on FacebookShare this topic on GoogleShare this topic on MySpaceShare this topic on TwitterShare this topic on Yahoo



Thanks given by:


Tags:
 

Related Topics

  Subject / Started by Replies Last post
0 Replies
543 Views
Last post April 15, 2015, 01:29:25 AM
by DjiSamSoe
4 Replies
1395 Views
Last post December 23, 2016, 07:36:57 PM
by hyunkambey
0 Replies
717 Views
Last post December 24, 2016, 02:16:13 AM
by wroser
0 Replies
531 Views
Last post March 21, 2018, 01:50:08 PM
by jattsahi2
0 Replies
662 Views
Last post March 29, 2018, 07:49:27 PM
by jattsahi2




Back to top
Dragon Ball – Bảy Viên Ngọc Rồng chap 73 | Business Development - 19480 Words | Taraji P. Henson