+ ShareSpark.net »  :::: Dubbed Zone (Dubbed English in Hindi) » English Movies Dubbed in Hindi
|- Double Trouble 2012 x264 720p Esub BluRay Dual Audio Hindi Chinese [Shahzaib Shah]


Mastercard 10% Off

Double Trouble 2012 x264 720p Esub BluRay Dual Audio Hindi Chinese [Shahzaib Shah]

0 Members and 1 Guest are viewing this topic.

November 27, 2018, 03:13:52 PM
  • ***************
  • Team SSX
  • Legend Member
  • ***
  • Topic Author
  • Thank You: 1833
  • Reputation: 553
  • Activity:
    100%
  • Country: pk
  • Posts: 1934
  • Topics: 1218
  • Join Date: Mar 2015
  • =$ Success Never Ends $=
Double Trouble 2012 x264 720p Esub BluRay Dual Audio Hindi Chinese [Shahzaib Shah]











Format : Matroska
Format version : Version 4 / Version 2
File size : 568 MiB
Duration : 1 h 28 min
Overall bit rate : 894 kb/s
Movie name : Double Trouble 2012 [Shahzaib Shah]

Video
Format : AVC
Format/Info : Advanced Video Codec
Codec ID : V_MPEG4/ISO/AVC
Duration : 1 h 28 min
Bit rate : 699 kb/s
Width : 1 280 pixels
Height : 544 pixels
Display aspect ratio : 2.35:1
Frame rate mode : Constant
Frame rate : 24.000 FPS
Color space : YUV
Chroma subsampling : 4:2:0
Bit depth : 8 bits
Scan type : Progressive
Bits/(Pixel*Frame) : 0.042
Stream size : 444 MiB (78%)
Title : [Shahzaib Shah]
Writing library : x264 core 155 r2901 7d0ff22

Audio #1
Format : AAC
Duration : 1 h 28 min
Bit rate : 96.0 kb/s
Channel(s) : 2 channels
Channel positions : Front: L R
Sampling rate : 48.0 kHz
Frame rate : 46.875 FPS (1024 SPF)
Compression mode : Lossy
Delay relative to video : -21 ms
Stream size : 61.1 MiB (11%)
Title : [Shahzaib Shah]
Language : Hindi

Audio #2
Format : AAC
Duration : 1 h 28 min
Bit rate : 96.0 kb/s
Channel(s) : 2 channels
Channel positions : Front: L R
Sampling rate : 48.0 kHz
Frame rate : 46.875 FPS (1024 SPF)
Compression mode : Lossy
Delay relative to video : 9 ms
Stream size : 61.1 MiB (11%)
Title : [Shahzaib Shah]
Language : Chinese

Text
Language : English






 :ss:
















 :download:































Share this topic on FacebookShare this topic on GoogleShare this topic on MySpaceShare this topic on TwitterShare this topic on Yahoo




Tags:
 

Related Topics





Back to top
1x02 Episodio 2 | B-Project: Kodou Ambitious | Telecharger Cocaine Godmother gratuit